<?xml version="1.0" standalone="no"?>
<!DOCTYPE svg PUBLIC "-//W3C//DTD SVG 1.1//EN" "http://www.w3.org/Graphics/SVG/1.1/DTD/svg11.dtd">
<svg xmlns="http://www.w3.org/2000/svg">
<metadata>Generated by Fontastic.me</metadata>
<defs>
<font id="asi" horiz-adv-x="512">
<font-face font-family="asi" units-per-em="512" ascent="480" descent="-32"/>
<missing-glyph horiz-adv-x="512" />

<glyph unicode="&#97;" d="M455 453l-277-228-127 93-51-55 156-182 28-32 29 31 294 318z"/>
<glyph unicode="&#98;" d="M260 464c-121 0-220-98-220-220 0-121 99-220 220-220 122 0 220 99 220 220 0 122-98 220-220 220z m0-376c-86 0-156 70-156 156 0 86 70 156 156 156 86 0 156-70 156-156 0-86-70-156-156-156z m93 125l-74 59 0 56c0 9-7 16-16 16-9 0-16-7-16-16l0-64 0-1 1-3 1-3 1-2 3-3 0 0 80-64c3-3 7-4 10-4 5 0 9 2 13 6 5 7 4 17-3 23z"/>
<glyph unicode="&#99;" d="M448 245l0 43 64 0-64 32 0 39-121 121-263 0 0-160-64-32 64 0 0-43-64 43 0-271 127 111 36 32 13 11-80 53 0 224 217 0 7-7 0-89 89 0 7-7 0-121-80-53 13-11 36-32 127-111 0 271z m-148-85l-88 0-37-32-146-128 454 0-146 128z"/>
<glyph unicode="&#100;" d="M256 97l-224 0 0 288 128 0 0 32-128 0c-18 0-32-15-32-32l0-352c0-18 14-32 32-32l224 0c18 0 32 14 32 32l0 224-32 0z m-96-64l-32 0 0 32 32 0z m32 479l0-63 0 0 0-160 128 0 0-96 129 96 63-1 0 224z m288-192l-31 1-11 0-9-7-77-57 0 64-32 0-96 0 0 95 0 0 0 64 256 0z m-224 97l32 0 0-32-32 0z m64 0l32 0 0-32-32 0z m64 0l32 0 0-32-32 0z"/>
<glyph unicode="&#101;" d="M448 384l-256 0 0 32 48 0c27 0 48 21 48 48 0 26-21 48-48 48l-80 0c-18 0-32-14-32-32l0-96-96 0c-18 0-32-14-32-32l0-192c0-18 14-32 32-32l160 0 0-128 128 0 0 128 128 0c18 0 32 14 32 32l0 192c0 18-14 32-32 32z m-192-352l-32 0 0 96 32 0z m192 128l-416 0 0 192 96 0 0-96c0-18 14-32 32-32 18 0 32 14 32 32l0 96 256 0z"/>
<glyph unicode="&#102;" d="M460 319c-20 99-103 172-207 172-106 0-198-78-217-178-21-10-36-32-36-57l0-64c0-35 29-64 64-64 35 0 64 29 64 64l0 64c0 34-27 62-61 64 21 80 98 142 186 142 88 0 159-61 177-145-26-7-46-32-46-61l0-64c0-35 29-64 64-64l0-16c0-48-16-48-48-48l-123 0c-7 19-24 32-45 32-26 0-48-21-48-48 0-26 22-48 48-48 21 0 38 13 45 32l123 0c32 0 80 0 80 80l0 25c19 11 32 31 32 55l0 64c0 31-23 57-52 63z"/>
<glyph unicode="&#103;" d="M199 112c-6 1-13 1-18 3-34 9-59 35-68 68-2 5-6 9-12 9l-8 0c-4 0-7-2-10-5-2-3-3-7-2-10l1-3c12-44 46-78 90-90 6-2 12-3 19-3 4-1 9 1 13 4 4 3 6 8 6 13l0 2c0 6-5 12-11 12z m-1-80c-13 0-26 2-38 6-61 16-108 63-125 124-1 5-2 11-3 16-1 8-8 14-16 14l-2 0c-4 0-8-2-11-5-2-3-3-7-3-11 1-8 3-15 5-22 19-72 75-128 147-147 13-4 27-6 40-7 5 0 9 1 13 4 3 4 5 8 4 12l0 4c0 6-5 12-11 12z m-9 181c-6 6-16 6-23 0-6-6-6-17 0-23l23-23c6-6 16-6 23 0 6 7 6 17 0 23z m310 38l-45 46c-6 6-16 6-23 0-6-7-6-17 0-23l34-34-90-90-34 34c-6 6-17 6-23 0-6-7-6-17 0-23l45-45c7-7 17-7 23 0l113 113c6 6 6 16 0 22z m-56 193c-25 25-66 25-91 0l-23-23-135-136-12-11c-6-6-6-16 0-23l68-67c7-7 17-7 23 0l170 169c24 25 24 66 0 91z m-283-125c6-6 16-6 22 0 7 7 7 17 0 23l-34 34 91 90 34-34c6-6 16-6 22 0 7 7 7 17 0 23l-45 45c-6 7-16 7-22 0l-114-113c-6-6-6-16 0-22z"/>
<glyph unicode="&#104;" d="M121 512c-8 0-21-5-27-11l-51-51c-6-6-11-19-11-27l0-407c0-9 7-16 16-16l368 0 0 448-96 0 0-224-64 64-64-64 0 224-105 0 32 32 329 0 0-416 32 0 0 448z"/>
<glyph unicode="&#105;" d="M256 512c-141 0-256-115-256-256 0-139 114-254 255-256l5 0c61 0 101 23 113 61 5 14 4 26-2 37 18 11 38 33 43 39 13 14 5 32 1 42l-2 4c-5 13-70 35-76 35l-4 0c-9-2-27-21-49-39-23 12-45 30-59 48-16 19-26 39-32 62 24 20 43 37 44 47 1 5-8 74-20 81l-3 3c-7 5-19 13-32 11-3-1-6-2-9-4-8-5-39-26-49-45-6-12-23-107 55-202 66-81 142-88 171-87 2-7 3-14 0-20-6-21-38-43-94-41-123 2-224 102-224 224 0 124 101 224 224 224 123 0 224-100 224-224 0-30-10-73-28-108-5-10-2-21 7-27l1-1 8-2 7 5c24 42 37 96 37 133 0 141-115 256-256 256z"/>
<glyph unicode="&#106;" d="M416 107c-7 17-95 43-103 44l-6-1c-12-2-25-14-53-38-31 14-75 53-95 76-22 25-49 66-59 97 32 29 45 41 46 55 0 7-15 98-31 107l-5 3c-10 7-25 17-42 13-4-1-8-2-12-5-12-7-40-27-53-52-7-16-11-161 97-283 93-105 205-123 246-123l2 0c5 0 9 0 12 1l0 0 2 0c27 10 50 36 58 46 16 20 5 43-1 55z m28 292l68 68-45 45-68-68-68 68-45-45 68-68-68-68 45-45 68 68 68-68 45 45z"/>
<glyph unicode="&#107;" d="M480 352l-32 0c-6 0-12-2-17-5-29 78-97 133-175 133-8 0-17-1-25-2-4-1-9-1-13-2-1-1-1-1-2-1-9-2-19-5-28-9-2-1-4-2-7-4l0 0c-7-3-13-6-20-10-36-23-65-60-82-104-4 2-9 4-15 4l-32 0c-18 0-32-14-32-32l0-96c0-18 14-32 32-32l32 0c4 0 7 1 11 2 16-48 49-89 85-118l0 20c0 7 1 14 3 20-36 35-67 84-67 140 0 13 1 26 3 39 36 14 65 46 80 88 33-37 104-63 187-63 14 0 27 1 40 2 6-21 10-43 10-66 0-49-25-94-56-128l42 0c15 20 27 42 35 66 4-1 7-2 11-2l32 0 0-64c0-18-14-32-32-32l-128 0c0 18-14 32-32 32l-64 0c-18 0-32-14-32-32l0-32c0-18 14-32 32-32l64 0c18 0 32 14 32 32l128 0c35 0 64 29 64 64l0 192c0 18-14 32-32 32z m-416-96l-32 0 0 64 32 0z m416 0l-32 0 0 64 32 0z m-264 4c0-15-13-28-28-28-15 0-28 13-28 28 0 15 13 28 28 28 15 0 28-13 28-28z m136 0c0 15-13 28-28 28-15 0-28-13-28-28 0-15 13-28 28-28 15 0 28 13 28 28z"/>
<glyph unicode="&#108;" d="M256 512c-141 0-256-100-256-224 0-59 26-112 68-152l-68-136 0 0 161 80c29-10 61-16 95-16 141 0 256 100 256 224 0 124-115 224-256 224z m-8-397c-26 0-48 21-48 47 0 26 21 47 48 47 26 0 47-21 47-47 0-26-22-47-47-47z m34 158l0-23c0-14-6-19-19-19l-33 0c-13 0-19 5-19 19l0 55c0 16 16 21 29 24 3 1 6 2 9 3 16 6 26 13 26 30 0 9-3 22-28 22-18 0-34-7-44-11-5-2-8-4-12-4l-3 0-10 9-13 34-1 7c0 24 74 35 93 35 58 0 97-37 97-92 0-60-44-79-72-89z"/>
<glyph unicode="&#109;" d="M480 416l-448 0c-18 0-32-14-32-32l0-160c0-18 14-32 32-32l32 0 0 96 384 0 0-96 32 0c18 0 32 14 32 32l0 160c0 18-14 32-32 32z m-416-64l-32 0 0 32 32 0z m320-256l-64 0 0-64-192 0 0 224-32 0 0-256 224 0 96 96 0 160-32 0z m-256 384l256 0 0-32 32 0 0 64-320 0 0-64 32 0z m32-256l192 0 0-32-192 0z m0-64l128 0 0-32-128 0z"/>
<glyph unicode="&#110;" d="M256 257c-29-39-75-65-128-65-23 0-44 5-64 14l0-142c0-35 29-64 64-64l256 0c35 0 64 29 64 64l0 142c-20-9-41-14-64-14-53 0-99 26-128 65z m-64-193l-96 0 0 32 96 0z m128 0l-96 0 0 32 96 0z m96 0l-32 0 0 32 32 0z m-288 416c-71 0-128-57-128-128 0-71 57-128 128-128 71 0 128 57 128 128 0 71-57 128-128 128z m0-192c-35 0-64 29-64 64 0 35 29 64 64 64 35 0 64-29 64-64 0-35-29-64-64-64z m256 192c-71 0-128-57-128-128 0-71 57-128 128-128 71 0 128 57 128 128 0 71-57 128-128 128z m0-192c-35 0-64 29-64 64 0 35 29 64 64 64 35 0 64-29 64-64 0-35-29-64-64-64z m-256 96c-18 0-32-14-32-32 0-18 14-32 32-32 18 0 32 14 32 32 0 18-14 32-32 32z m256 0c-18 0-32-14-32-32 0-18 14-32 32-32 18 0 32 14 32 32 0 18-14 32-32 32z"/>
<glyph unicode="&#111;" d="M492 257l-50 33-2 6 27 54c2 4 2 10 0 15-3 4-8 7-13 8l-60 4-5 4-3 60c-1 5-4 10-8 13-5 2-11 3-16 0l-53-26-6 1-34 50c-3 5-8 7-13 7-5 0-10-2-13-7l-34-50-6-1-53 26c-5 3-11 2-16 0-4-3-7-8-8-13l-3-60-5-4-60-4c-5-1-10-4-13-8-2-5-2-11 0-15l27-54-2-6-50-34c-4-3-7-8-7-13 0-5 3-10 7-13l50-34 2-6-27-53c-2-5-2-11 0-15 3-5 8-8 13-8l60-4 5-5 3-60c1-5 4-10 8-12 5-3 11-3 16-1l53 27 6-2 34-50c3-4 8-7 13-7 5 0 10 3 13 7l34 50 6 2 54-27c4-2 10-2 15 1 4 2 7 7 8 12l3 60 5 5 60 4c5 0 10 3 13 8 2 4 2 10 0 15l-26 53 1 6 50 34c4 3 7 8 7 13 0 6-3 11-7 14z m-153 63l-96 0c-17 0-32-14-32-32 0-18 15-32 32-32l32 0c35 0 64-29 64-64 0-35-29-64-64-64l0-32-32 0 0 32-64 0 0 32 96 0c18 0 32 14 32 32 0 18-14 32-32 32l-32 0c-35 0-64 29-64 64 0 35 29 64 64 64l0 32 32 0 0-32 64 0z"/>
<glyph unicode="&#112;" d="M397 344l6 4 22 23c13 12 14 31 4 42-11 10-30 9-42-4l-23-22-5-8c-21 14-45 25-71 31l0 38 16 0c9 0 16 7 16 16l0 32c0 9-7 16-16 16l-128 0c-9 0-16-7-16-16l0-32c0-9 7-16 16-16l16 0 0-38c-24-5-47-15-67-29l-4 6-22 22c-13 13-32 14-42 4-11-11-9-30 3-42l23-23 2-2c-33-36-53-85-53-138 0-115 93-208 208-208 115 0 208 93 208 208 0 52-19 100-51 136z m-157-312c-97 0-176 79-176 176 0 97 79 176 176 176 97 0 176-79 176-176 0-97-79-176-176-176z m0 288c-62 0-112-50-112-112 0-62 50-112 112-112 62 0 112 50 112 112 0 62-50 112-112 112z m16-128l-32 0 0 96 32 0z"/>
<glyph unicode="&#113;" d="M63 93l0 182-29 18 0-199c-20-6-34-24-34-46 0-26 22-48 48-48 26 0 48 22 48 48 0 21-14 39-33 45z m193 61l-17 11-134 82-13 7 0-88c0-32 76-96 164-96 88 0 156 69 156 96l0 88-139-89z m-38 218l32-20-125-78 131-82 256 160-256 160-256-160 93-58z"/>
<glyph unicode="&#114;" d="M480 512l-448 0c-18 0-32-14-32-32l0-352c0-18 14-32 32-32l96 0 0-96 0 0 132 96 220 0c18 0 32 14 32 32l0 352c0 18-14 32-32 32z m-32-352l-384 0 0 288 384 0z m-323 224l256 0 0-32-256 0z m0-64l256 0 0-32-256 0z m0-64l160 0 0-32-160 0z"/>
<glyph unicode="&#115;" d="M242 489c-134 0-242-109-242-242 0-134 108-242 242-242 134 0 242 108 242 242 0 133-108 242-242 242z m-11-347l-17-19-17 20-93 108 30 33 76-56 165 136 31-32z"/>
<glyph unicode="&#116;" d="M160 448c0 35-29 64-64 64-35 0-64-29-64-64 0-35 29-64 64-64 35 0 64 29 64 64z m320 0c0 35-29 64-64 64-35 0-64-29-64-64 0-35 29-64 64-64 35 0 64 29 64 64z m-224-384c35 0 64 29 64 64 0 35-29 64-64 64-35 0-64-29-64-64 0-35 29-64 64-64z m-192 201l23 23 90-90-22-23z m294-90l-23 22 90 91 23-23z m-262 209c-53 0-96-29-96-64l192 0c0 35-43 64-96 64z m320 0c-53 0-96-29-96-64l192 0c0 35-43 64-96 64z m-160-320c-53 0-96-29-96-64l192 0c0 35-43 64-96 64z"/>
<glyph unicode="&#117;" d="M320 384l0 96-128 0 0-96-192 0 0-384 512 0 0 384z m-96 64l64 0 0-128-64 0z m256-416l-448 0 0 288 160 0c0-18 14-32 32-32l64 0c18 0 32 14 32 32l160 0z m-305 126c-15 6-19 8-19 8l0 14c0 0 6 5 8 18 3-1 7 5 7 8 0 3-1 12-5 11 1 7 2 13 1 16-1 11-12 23-29 23-17 0-29-12-30-23 0-3 1-9 2-16-5 1-5-8-5-11 0-3 4-9 7-8 2-13 7-18 7-18l0-14c0 0-3-2-18-8-15-6-30-11-34-17-4-7-3-21-3-21l147 0c0 0 2 14-2 21-5 6-20 11-34 17z m81 66l128 0 0-32-128 0z m160 0l32 0 0-32-32 0z m-160-64l96 0 0-32-96 0z m128 0l64 0 0-32-64 0z"/>
<glyph unicode="&#118;" d="M97 320c8 0 16 1 24 4l47-47 68 68-47 46c2 8 4 16 4 25 0 53-43 96-96 96-2 0-4-1-4-3-1-2 0-4 2-5 20-10 34-32 34-56 0-35-29-64-64-64-25 0-46 14-57 34-1 2-2 2-4 2-2-1-3-2-3-4 0-53 43-96 96-96z m320-128c-9 0-17-2-25-4l-43 44-68-68 43-43c-2-8-3-16-3-25 0-53 43-96 96-96 1 0 3 1 4 3 0 2-1 4-2 5-21 10-34 32-34 56 0 35 28 64 64 64 24 0 45-14 56-34 1-2 3-2 5-2 1 0 1 1 2 2l0 13c-6 48-46 85-95 85z m93 228c-2 0-4 0-5-2-11-20-32-34-56-34-16 0-31 6-42 16l-7 6c-9 12-15 26-15 42 0 24 13 46 34 56 1 1 2 3 2 5-1 2-3 3-4 3-48 0-87-35-95-81-1-5-1-10-1-15 0-9 1-18 4-27l-201-201c-9 2-18 4-27 4-6 0-11-1-16-2-45-7-80-46-80-94 0-2 1-3 3-4 2 0 3 0 4 2 11 20 32 34 57 34 16 0 30-6 41-16l7-6c10-12 16-26 16-42 0-24-14-46-34-56-2-1-3-3-2-5 0-2 2-3 4-3 44 0 82 31 92 72 2 8 4 16 4 24 0 8-1 15-3 22l205 205c7-2 14-3 22-3 8 0 16 1 23 3 38 10 68 42 72 82l0 13c-1 1-1 2-2 2z"/>
<glyph unicode="&#119;" d="M476 371c-6 3-12 1-17-3l-55-55-73 72-17 18 54 55c5 5 6 12 4 18-3 6-9 10-15 10-32-1-64-13-89-37-38-39-47-96-26-144l-200-173-23-23c-25-25-25-65 0-90 13-13 29-19 45-19l1 0c16 0 32 6 45 19l22 22 174 201c47-21 105-13 143 26 25 24 37 56 37 88 0 7-4 13-10 15z m-389-330c-12-12-33-12-45 0-13 13-13 33 0 46 12 12 33 12 45 0 13-13 13-33 0-46z"/>
<glyph unicode="&#120;" d="M160 320l64 0 0-64-64 0z m96 0l64 0 0-64-64 0z m96 0l64 0 0-64-64 0z m-288-96l64 0 0-64-64 0z m96 0l64 0 0-64-64 0z m96 0l64 0 0-64-64 0z m96 0l64 0 0-64-64 0z m-288-96l64 0 0-64-64 0z m96 0l64 0 0-64-64 0z m96 0l64 0 0-64-64 0z m160 320l0 48c0 9-7 16-16 16l-64 0c-9 0-16-7-16-16l0-48-160 0 0 48c0 9-7 16-16 16l-64 0c-9 0-16-7-16-16l0-48-64 0 0-448 480 0 0 448z m-64 32l32 0 0-64-32 0z m-256 0l32 0 0-64-32 0z m352-448l-416 0 0 320 416 0z"/>
<glyph unicode="&#121;" d="M480 416l-352 0 0 48c0 9-7 16-16 16l-32 0c-9 0-16-7-16-16l0-48-32 0c-18 0-32-14-32-32l0-288c0-18 14-32 32-32 0-18 14-32 32-32l128 0c18 0 32 14 32 32l256 0c18 0 32 14 32 32l0 288c0 18-14 32-32 32z m-288-320c0-18-14-32-32-32l-64 0c-18 0-32 14-32 32l0 256c0 18 14 32 32 32l64 0c18 0 32-14 32-32z m128 0l-32 0 0 32 32 0z m0 64l-32 0 0 32 32 0z m0 64l-32 0 0 32 32 0z m64-128l-32 0 0 32 32 0z m0 64l-32 0 0 32 32 0z m0 64l-32 0 0 32 32 0z m64-128l-32 0 0 32 32 0z m0 64l-32 0 0 32 32 0z m0 64l-32 0 0 32 32 0z m0 64l-160 0 0 64 160 0z m-352-176c0-9 7-16 16-16l32 0c9 0 16 7 16 16l0 112-64 0z"/>
<glyph unicode="&#122;" d="M237 400c-106 0-192-86-192-192 0-55 24-105 61-140l-41-41c-6-6-6-16 0-22 6-7 16-7 23 0l43 43c30-20 67-32 106-32 43 0 82 14 114 37l2-3 45-45c6-7 17-7 23 0 6 6 6 16 0 22l-45 46-2 0c34 35 55 83 55 135 0 106-86 192-192 192z m0-320c-71 0-128 57-128 128 0 70 57 128 128 128 71 0 128-58 128-128 0-71-57-128-128-128z m52 105l-46 37 0 25c0 8-7 16-16 16-9 0-16-8-16-16l0-32 0-1 1-4 1-2 1-3 2-2 1-1 52-42c3-2 6-3 10-3 5 0 9 2 12 6 6 7 5 17-2 22z m165 265c-38 38-95 42-138 14l152-151c28 42 23 100-14 137z m-422 0c-37-37-42-95-14-137l152 151c-43 28-101 24-138-14z"/>
<glyph unicode="&#65;" d="M288 448c-36 0-69-7-99-20-12 28-61 52-61 52l0-90c-23-20-41-45-52-73-36-3-76-11-76-29l0-96c0-21 71-57 128-78l0-50c0-18 14-32 32-32l32 0c18 0 32 14 32 32l0 8c20-5 42-8 64-8 22 0 44 3 64 8l0-8c0-18 14-32 32-32l32 0c18 0 32 14 32 32l0 58c40 34 64 82 64 134 0 106-100 192-224 192z m-128-200c-22 0-40 18-40 40 0 22 18 40 40 40 22 0 40-18 40-40 0-22-18-40-40-40z m192 128c-20 5-42 8-64 8-22 0-44-3-64-8l0 32c20 5 42 8 64 8 22 0 44-3 64-8z"/>
<glyph unicode="&#66;" d="M503 386c-30 54-129 94-247 94-118 0-217-40-247-94-6-11-9-22-9-34l0-41c0-10 4-19 12-25 7-6 17-8 26-6l96 19c15 3 26 16 26 31l0 46c0 14 10 27 24 30 22 7 46 10 72 10 26 0 50-3 73-10 13-3 23-16 23-30l0-46c0-15 11-28 26-31l96-19c9-2 19 0 26 6 8 6 12 15 12 25l0 41c0 12-3 23-9 34z m-375-130l64 0 0-64-64 0z m96 0l64 0 0-64-64 0z m96 0l64 0 0-64-64 0z m-192-96l64 0 0-64-64 0z m96 0l64 0 0-64-64 0z m96 0l64 0 0-64-64 0z m-192-96l64 0 0-64-64 0z m96 0l64 0 0-64-64 0z m96 0l64 0 0-64-64 0z"/>
<glyph unicode="&#67;" d="M448 32l0 128-64 32 0-160-32 0 0 384-64 0 0 64-32 0 0 32-32 0 0-32-32 0 0-64-64 0 0-384-32 0 0 160-64-32 0-128-32 0 0-32 480 0 0 32z m-224 32l-32 0 0 32 32 0z m0 64l-32 0 0 32 32 0z m0 64l-32 0 0 32 32 0z m0 64l-32 0 0 32 32 0z m0 64l-32 0 0 32 32 0z m64-256l-32 0 0 32 32 0z m0 64l-32 0 0 32 32 0z m0 64l-32 0 0 32 32 0z m0 64l-32 0 0 32 32 0z m0 64l-32 0 0 32 32 0z"/>
<glyph unicode="&#68;" d="M343 363l-23-22c25-24 41-57 41-94 0-37-16-70-41-93l23-23c31 29 50 70 50 116 0 46-19 87-50 116z m69 67l-23-22c42-41 68-98 68-161 0-63-26-120-68-161l23-22c48 46 77 111 77 183 0 72-29 137-77 183z m-243-89l-23 22c-31-29-50-70-50-116 0-46 19-87 50-116l23 23c-25 23-41 56-41 93 0 37 16 70 41 94z m-69 67l-22 22c-48-46-78-111-78-183 0-72 30-137 78-183l22 22c-42 41-68 98-68 161 0 63 26 120 68 161z m140-106c-26 0-48-21-48-48 0-26 22-48 48-48 26 0 48 22 48 48 0 27-22 48-48 48z"/>
<glyph unicode="&#69;" d="M444 512l-376 0-68-160 0-352 512 0 0 352z m-355-32l135 0 0-96-176 0z m231-320l0-96-128 0 0 96-51 0 61 63 61 64 60-63 61-64z m-32 224l0 96 135 0 41-96z"/>
<glyph unicode="&#70;" d="M448 328l-12 56c-87-4-148-40-148-147l0-123 153 0 0 154-58 0c0 35 21 55 65 60z m-218 0l-12 56c-87-4-148-40-148-147l0-123 153 0 0 154-58 0c0 35 21 55 65 60z"/>
<glyph unicode="&#71;" d="M179 144l0-32 128 32z m275 221l-3 6c-6 16-29 29-45 29l-3 0c-45 74-80 96-157 96-76 0-112-22-156-96l-7 0c-16 0-38-13-45-29l-3-6c-6-16 0-29 19-29l16 0c-6-10-9-19-9-32-3-19-7-42-7-64 0-10 0-22 4-32 16-106 112-192 188-192 80 0 173 86 189 192 3 10 3 22 3 32 0 22-3 45-6 64-3 13-6 22-10 32l16 0c16 0 23 13 16 29z m-352-29l285 0c3-10 7-19 10-32l-304 0c3 13 6 22 9 32z m237-64l0-32-64 0 0 32z m-128 0l0-32-64 0 0 32z m32-224c-57 0-141 70-157 160l314 0c-16-90-99-160-157-160z"/>
<glyph unicode="&#72;" d="M288 288l0 128-96 0 0-128-128 0 0-96 128 0 0-128 96 0 0 128 128 0 0 96z"/>
<glyph unicode="&#73;" d="M419 419c-96 95-251 95-347 0-96-96-96-251 0-347 48-48 110-72 173-72l1 0c62 0 125 24 173 72 95 95 95 251 0 347z m-184-371c-27 0-48 21-48 48 0 27 21 48 48 48 26 0 48-21 48-48 0-26-22-48-48-48z m34 168l0-27c0-13-5-18-18-18l-35 0c-13 0-18 5-18 18l0 60c0 15 15 19 29 23 3 1 7 2 10 3 18 7 28 15 28 34 0 6 0 26-31 26-19 0-37-8-48-12-5-3-8-4-11-4-6 0-12 5-13 10l-12 32c-2 3-2 6-2 8 0 24 72 37 96 37 61 0 101-39 101-97 1-63-47-83-76-93z"/>
<glyph unicode="&#74;" d="M331 512l55-55-114-115 68-68 114 115 58-58 0 181z m85-405c-7 17-95 43-103 44l-6-1c-12-2-25-14-53-38-31 14-75 53-95 76-22 25-49 66-59 97 32 29 45 41 46 55 0 7-15 98-31 107l-5 3c-10 7-25 17-42 13-4-1-8-2-12-5-12-7-40-27-53-52-7-16-11-161 97-283 93-105 205-123 246-123l2 0c5 0 9 0 12 1l0 0 2 0c27 10 50 36 58 46 16 20 5 43-1 55z"/>
<glyph unicode="&#75;" d="M333 210l-49 0c-3 10-7 19-12 27l33 32c7 8 7 20 0 28l-14 14c-8 7-20 7-28 0l-33-33c-9 5-19 9-29 11l0 43c0 11-9 20-19 20l-20 0c-11 0-20-9-20-20l0-43c-11-2-21-7-31-13l-28 28c-7 8-20 8-27 0l-14-14c-8-8-8-20 0-28l28-28c-6-10-10-22-13-34l-37 0c-11 0-19-8-19-19l0-20c0-10 8-19 19-19l40 0c3-12 9-23 15-33l-26-26c-8-8-8-20 0-28l14-14c7-7 20-7 27 0l30 30c10-5 21-9 32-11l0-40c0-11 9-20 20-20l19 0c11 0 20 9 20 20l0 46c10 3 19 8 28 14l31-32c8-8 20-8 28 0l14 14c7 8 7 20-1 28l-34 34c4 9 7 18 10 28l46 0c11 0 20 8 20 19l0 20c0 10-9 19-20 19z m-161-83c-27 0-49 22-49 49 0 27 22 49 49 49 27 0 49-22 49-49 0-27-22-49-49-49z m328 295l-31 0c-2 6-5 11-8 17l21 20c5 5 5 13 0 18l-9 9c-5 5-12 5-17 0l-21-21c-6 3-12 5-19 7l0 28c0 6-5 12-12 12l-13 0c-7 0-12-6-12-12l0-28c-7-2-14-4-20-8l-18 17c-5 5-13 5-17 0l-9-8c-5-5-5-13 0-18l18-18c-4-7-7-14-8-21l-24 0c-7 0-12-6-12-13l0-12c0-7 5-13 12-13l25 0c2-7 6-14 10-20l-17-17c-5-5-5-13 0-18l9-9c5-5 13-5 18 0l19 19c6-3 13-5 20-6l0-27c0-6 6-12 13-12l12 0c7 0 13 6 13 12l0 30c6 2 12 5 17 9l20-20c5-5 13-5 18 0l9 8c4 5 4 13 0 18l-23 22c3 5 5 11 7 17l29 0c6 0 10 4 12 9l0 20c-2 5-6 9-12 9z m-102-53c-18 0-32 14-32 31 0 17 14 31 32 31 17 0 31-14 31-31 0-17-14-31-31-31z"/>
<glyph unicode="&#76;" d="M121 512c-8 0-21-5-27-11l-51-51c-6-6-11-19-11-27l0-407c0-9 7-16 16-16l368 0 0 448-329 0 32 32 329 0 0-416 32 0 0 448z m-4-198c9 14 33 31 39 35 3 1 5 2 8 3 10 1 19-5 25-9l2-2c10-6 16-60 16-64-1-8-16-21-35-37 5-18 13-34 25-49 12-14 29-28 47-37 17 14 31 29 38 30l4 0c4 0 56-18 60-28l1-3c3-7 9-21 0-33-6-6-26-29-42-34l-1 0 0 0c-12-2-82-6-143 68-61 75-49 150-44 160z"/>
<glyph unicode="&#77;" d="M0 416l0-352 512 0 0 352z m438-32l-184-184-184 184z m42-254l-94 94-23-23 105-105-424 0 105 105-23 23-94-94 0 247 200-200 22-22 23 22 203 203z"/>
<glyph unicode="&#78;" d="M416 55l-85 84-22-22 84-85-338 0 84 85-22 22-85-84 0 222 192-137 63 50-19 23-44-33-152 108 248 0 0 32-320 0 0-320 448 0 0 192-32 0z m0 457l0-192 32 0 0 160 32 0 0-224-96 0 0 192-32 0 0-224 160 0 0 288z"/>
<glyph unicode="&#79;" d="M352 407l0 73-64 0 0-64-128 0c-35 0-64-29-64-64l0-288c0-35 28-64 63-64l162 0c35 0 63 29 63 64l0 288c0 23-13 44-32 55z m0-343c0-18-14-32-32-32l-160 0c-18 0-32 14-32 32l0 288c0 18 14 32 32 32l160 0c18 0 32-14 32-32z m-192 256l160 0 0-96-160 0z m0-128l32 0 0-32-32 0z m64 0l32 0 0-32-32 0z m64 0l32 0 0-32-32 0z m-128-64l32 0 0-32-32 0z m64 0l32 0 0-32-32 0z m64 0l32 0 0-32-32 0z"/>
<glyph unicode="&#80;" d="M320 224c0 35-29 64-64 64-35 0-64-29-64-64 0-24 13-44 32-55l-96-169 256 0-96 169c19 11 32 31 32 55z m9-192l-146 0 18 32 110 0z m-37 64l-72 0 36 63z m-36 384c-141 0-256-115-256-256 0-50 15-96 39-135l28 17c-22 34-35 74-35 118 0 123 101 224 224 224 123 0 224-101 224-224 0-44-13-84-34-118l27-17c24 39 39 85 39 135 0 141-115 256-256 256z m0-96c-88 0-160-72-160-160 0-31 9-60 25-85l27 18c-12 19-20 42-20 67 0 71 57 128 128 128 71 0 128-57 128-128 0-25-8-48-20-67l27-18c16 25 25 54 25 85 0 88-72 160-160 160z"/>
<glyph unicode="&#81;" d="M336 192c0 6 0 10 0 16l29 26-35 41-23-19c-6 6-16 10-25 13l0 32-52 0 0-32c-9-3-19-7-25-13l-23 16-35-38 29-26c0-6 0-10 0-16 0-6 0-10 0-16l-29-26 35-41 23 19c6-6 16-10 25-13l0-32 55 0 0 32c9 3 16 7 25 13l20-19 35 41-29 26c0 6 0 10 0 16z m-80-42c-22 0-42 20-42 42 0 22 20 42 42 42 22 0 42-20 42-42 0-22-20-42-42-42z m176 298l0 48c0 10-6 16-16 16l-64 0c-10 0-16-6-16-16l0-48-160 0 0 48c0 10-6 16-16 16l-64 0c-10 0-16-6-16-16l0-48-64 0 0-448 480 0 0 448z m-64 32l32 0 0-64-32 0z m-256 0l32 0 0-64-32 0z m352-448l-416 0 0 320 416 0z"/>
<glyph unicode="&#82;" d="M192 384l128 0 0-32-128 0z m192 0c0 71-57 128-128 128-71 0-128-57-128-128l-96 0 0-384 448 0 0 384z m64-352l-384 0 0 320 64 0 0-96 32 0 0 128c0 53 43 96 96 96 53 0 96-43 96-96l0-128 32 0 0 96 64 0z"/>
<glyph unicode="&#83;" d="M512 288l0 32-64 48 0 80-64 0 0-32-128 96-256-192 0-32 64 0 0-224-64 0 0-64 512 0 0 64-64 0 0 224z m-288-224l-96 0 0 112c0 26 22 48 48 48 26 0 48-22 48-48z m160 64l-96 0 0 96 96 0z"/>
<glyph unicode="&#84;" d="M192 288l-128 0 0-162-64 0 130-126 126 126-64 0z m158 224l-126-128 64 0 0-160 128 0 0 160 64 0z"/>
<glyph unicode="&#85;" d="M202 288l-128 0 0-160-64 0 128-128 128 128-64 0z m144 182l-20 20 20 22 22-22-10-10z m-77-80l-19 23 19 19 19-19z m38 42l-19 19 19 19 23-22z m-64-74l-48 0 35 36 13-16z m32 29l29 0 0-29-29 0z m29-125l-29 0 0 23 29 0z m0 48l-29 0 0 23 29 0z m-29-73l29 0 0-29-29 0z m58 0l29 0 0-29-29 0z m61 0l28 0 0-29-28 0z m28 25l-28 0 0 23 28 0z m0 48l-28 0 0 23 28 0z m-28 77l28 0 0-29-28 0z m108-29l-51 0 0 20 16 16z m-76 32l-20 20 23 22 19-19z m-39 42l-19 19 22 23 20-20z"/>
<glyph unicode="&#86;" d="M393 261c-11 10-30 9-42-4l-45-45c-13-13-23-8-23 9l0 160c0 17-12 32-27 32-15 0-27-15-27-32l0-160c0-17-10-22-23-9l-45 45c-12 13-31 14-42 4-10-11-8-30 4-42l110-110c13-13 33-13 46 0l110 110c12 12 14 31 4 42z"/>
<glyph unicode="&#87;" d="M403 279l-110 110c-12 12-31 14-42 4-10-11-9-30 4-42l45-45c13-13 8-23-9-23l-160 0c-17 0-32-12-32-27 0-15 15-27 32-27l160 0c17 0 22-10 9-23l-45-45c-13-12-14-31-4-42 11-10 30-8 42 4l110 110c13 13 13 33 0 46z"/>
<glyph unicode="&#88;" d="M389 293l-110 110c-13 13-33 13-46 0l-110-110c-12-12-14-31-4-42 11-10 30-9 42 4l45 45c13 13 23 8 23-9l0-160c0-17 12-32 27-32 15 0 27 15 27 32l0 160c0 17 10 22 23 9l45-45c12-13 31-14 42-4 10 11 8 30-4 42z"/>
<glyph unicode="&#89;" d="M381 283l-160 0c-17 0-22 10-9 23l45 45c13 12 14 31 4 42-11 10-30 8-42-4l-110-110c-13-13-13-33 0-46l110-110c12-12 31-14 42-4 10 11 9 30-4 42l-45 45c-13 13-8 23 9 23l160 0c17 0 32 12 32 27 0 15-15 27-32 27z"/>
<glyph unicode="&#90;" d="M484 68l-224 392c-9 16-23 16-32 0l-224-392c-9-15-2-28 16-28l448 0c17 0 25 13 16 28z m-208 52c0-9-7-16-16-16l-32 0c-9 0-16 7-16 16l0 32c0 9 7 16 16 16l32 0c9 0 16-7 16-16z m0 96c0-9-7-16-16-16l-32 0c-9 0-16 7-16 16l0 96c0 9 7 16 16 16l32 0c9 0 16-7 16-16z"/>
<glyph unicode="&#48;" d="M416 320l-83 0 42 41c9 10 12 23 7 35-5 12-17 20-30 20l-32 0 0 64c0 18-14 32-32 32l-64 0c-18 0-32-14-32-32l0-64-32 0c-13 0-25-8-30-20-5-12-2-25 7-35l42-41-83 0-96-192 0-128 512 0 0 128z m-256 64l64 0 0 96 64 0 0-96 64 0-96-96z m-44-96l95 0 22-23c7-6 15-9 23-9 8 0 16 3 23 9l22 23 95 0 64-128-408 0z m364-256l-448 0 0 96 448 0z m-96 64l64 0 0-32-64 0z"/>
<glyph unicode="&#50;" d="M256 512c-141 0-256-115-256-256 0-141 115-256 256-256 141 0 256 115 256 256 0 141-115 256-256 256z m0-480c-125 0-224 99-224 224 0 125 99 224 224 224 125 0 224-99 224-224 0-125-99-224-224-224z"/>
<glyph unicode="&#51;" d="M211 243l-73 55-32-32 92-109 20-19 16 16 176 192-29 35z m45 269c-141 0-256-115-256-256 0-141 115-256 256-256 141 0 256 115 256 256 0 141-115 256-256 256z m0-480c-125 0-224 99-224 224 0 125 99 224 224 224 125 0 224-99 224-224 0-125-99-224-224-224z"/>
<glyph unicode="&#52;" d="M96 384l160-256 160 256z"/>
<glyph unicode="&#53;" d="M208 384l-32 0 128-128-128-128 32 0 128 128z"/>
<glyph unicode="&#49;" d="M505 270l-53 35-2 7 28 56c3 5 3 11 0 16-3 5-8 8-14 8l-63 4-5 5-4 63c0 6-3 11-8 14-5 3-11 3-16 0l-57-28-6 2-35 53c-3 4-8 7-14 7l0 0c-6 0-11-3-14-7l-35-53-6-2-57 28c-5 3-11 3-16 0-5-3-8-8-8-14l-4-63-5-5-63-4c-6 0-11-3-14-8-2-5-3-11 0-16l28-57-2-6-53-35c-4-3-7-8-7-14 0-6 3-11 8-14l52-35 2-6-28-57c-3-5-3-11 0-16 3-5 8-8 14-8l63-4 5-5 4-63c0-6 3-11 8-14 5-3 11-3 16 0l57 28 6-2 35-53c3-4 8-7 14-7 6 0 11 3 14 7l35 53 7 2 56-28c5-3 11-2 16 0 5 3 8 8 8 14l5 63 4 5 63 4c6 0 11 3 14 8 3 5 3 11 0 16l-28 57 2 6 53 35c4 3 7 8 7 14 0 6-3 11-7 14z m-126 30l-113-118-36-36c-6-6-17-6-24 0l-35 36-53 52c-6 7-6 17 0 24l24 24c7 6 17 6 24 0l52-53 114 118c6 7 17 7 23 0l24-24c7-6 7-17 0-23z"/>
<glyph unicode="&#54;" d="M67 176l13-54c86 3 147 41 147 147l0 121-153 0 0-153 57 0c0-35-19-55-64-61z m218 0l13-54c86 3 147 41 147 147l0 121-154 0 0-153 58 0c0-35-19-55-64-61z"/>
<glyph unicode="&#55;" d="M336 384l-32 0-128-128 128-128 32 0-128 128z"/>
<glyph unicode="&#56;" d="M144 288c-80 0-144-64-144-144 0-80 64-144 144-144 80 0 144 64 144 144 0 80-64 144-144 144z m80-160l-64 0 0-64-32 0 0 64-64 0 0 32 64 0 0 64 32 0 0-64 64 0z m128 384l-288 0 0-192 32 0 0 160 224 0 0-160 160 0 0-288-192 0 0-32 224 0 0 352z m0-160l0 115 115-115z"/>
<glyph unicode="&#57;" d="M0 352l0-320 512 0 0 320z m480-288l-448 0 0 256 448 0z m-128 224l96 0 0-96-96 0z m-320 128l448 0 0-32-448 0z m32 64l384 0 0-32-384 0z m32-256l128 0 0-32-128 0z m0-64l192 0 0-32-192 0z"/>
<glyph unicode="&#33;" d="M128 384l32 0 0-32-32 0z m64 0l32 0 0-32-32 0z m64 0l32 0 0-32-32 0z m64 0l32 0 0-32-32 0z m-192-64l32 0 0-32-32 0z m64 0l32 0 0-32-32 0z m64 0l32 0 0-32-32 0z m64 0l32 0 0-32-32 0z m-192-64l32 0 0-32-32 0z m64 0l32 0 0-32-32 0z m176 256l-256 0c-44 0-80-36-80-80l0-352c0-44 36-80 80-80l256 0c44 0 80 36 80 80l0 352c0 44-36 80-80 80z m16-432c0-9-7-16-16-16l-112 0 0-32-32 0 0 32-112 0c-9 0-16 7-16 16l0 352c0 9 7 16 16 16l256 0c9 0 16-7 16-16z"/>
<glyph unicode="&#34;" d="M0 160l64 0 0-160-64 0z m448-64l-192 0c-32 0-32 32 0 32 64 0 96 64 0 64-45 0-105-15-137-25-14-4-23-16-23-31l0-84c0-12 7-24 18-29 47-23 53-23 110-23 149 0 378 96 224 96z m-256 384l160 0 0-96 96 0 0-224-96 0 0-32 128 0 0 279-105 105-215 0 0-288 32 0z m192-23l41-41-41 0z"/>
<glyph unicode="&#35;" d="M0 224l0-224 224 0 0 128-96 96z m192-109l0-83-160 0 0 160 83 0 13-13 0-51 51 0z m-192 397l0-224 224 0 0 128-96 96z m192-109l0-83-160 0 0 160 83 0 13-13 0-51 51 0z m224 109l-128 0 0-224 224 0 0 128z m64-192l-160 0 0 160 83 0 13-13 0-51 51 0 13-13z m-192-96l0-224 224 0 0 128-96 96z m192-109l0-83-160 0 0 160 83 0 13-13 0-51 51 0z"/>
<glyph unicode="&#36;" d="M416 340l-68 68-90-90-91 90-68-68 91-90-91-91 68-68 91 91 90-91 68 68-90 91z"/>
<glyph unicode="&#37;" d="M448 480c19 0 32-13 32-32l0-384c0-19-13-32-32-32l-384 0c-19 0-32 13-32 32l0 384c0 19 13 32 32 32l384 0m0 32l-384 0c-35 0-64-29-64-64l0-384c0-35 29-64 64-64l384 0c35 0 64 29 64 64l0 384c0 35-29 64-64 64z"/>
<glyph unicode="&#38;" d="M448 480c19 0 32-13 32-32l0-384c0-19-13-32-32-32l-384 0c-19 0-32 13-32 32l0 384c0 19 13 32 32 32l384 0m0 32l-384 0c-35 0-64-29-64-64l0-384c0-35 29-64 64-64l384 0c35 0 64 29 64 64l0 384c0 35-29 64-64 64z m-237-269l-73 55-32-32 92-109 20-19 16 16 176 192-29 35z"/>
<glyph unicode="&#39;" d="M256 512c-141 0-256-115-256-256 0-141 115-256 256-256 141 0 256 115 256 256 0 141-115 256-256 256z m0-480c-125 0-224 99-224 224 0 125 99 224 224 224 125 0 224-99 224-224 0-125-99-224-224-224z m144 224c0-80-64-144-144-144-80 0-144 64-144 144 0 80 64 144 144 144 80 0 144-64 144-144z"/>
<glyph unicode="&#40;" d="M240 416c-97 0-176-79-176-176 0-97 79-176 176-176 97 0 176 79 176 176 0 97-79 176-176 176z m103-233l-46-46-57 58-57-58-46 46 58 57-58 57 46 46 57-58 57 58 46-46-58-57z"/>
<glyph unicode="&#41;" d="M475 256c0-40-9-77-29-110-20-34-46-60-80-80-33-20-70-29-110-29-40 0-77 9-110 29-34 20-60 46-80 80-20 33-29 70-29 110 0 40 9 77 29 110 20 34 46 60 80 80 33 20 70 29 110 29 40 0 77-9 110-29 34-20 60-46 80-80 20-33 29-70 29-110z"/>
</font>
</defs>
</svg>
